<?xml version="1.0" standalone="no"?>
<!DOCTYPE svg PUBLIC "-//W3C//DTD SVG 1.1//EN" "http://www.w3.org/Graphics/SVG/1.1/DTD/svg11.dtd">
<svg xmlns="http://www.w3.org/2000/svg">
<defs >
<font id="Raleway" horiz-adv-x="464" ><font-face
    font-family="Raleway"
    units-per-em="1000"
    panose-1="2 11 5 3 3 1 1 6 0 3"
    ascent="940"
    descent="-234"
    alphabetic="0" />
<glyph unicode=" " glyph-name="space" horiz-adv-x="255" />
<glyph unicode="!" glyph-name="exclam" horiz-adv-x="252" d="M92 228V717H160V228H92ZM92 0V112H160V0H92Z" />
<glyph unicode="&quot;" glyph-name="quotedbl" horiz-adv-x="292" d="M69 522V716H128V522H69ZM164 522V716H223V522H164Z" />
<glyph unicode="#" glyph-name="numbersign" horiz-adv-x="680" d="M642 457H513L466 261H600V207H453L403 0H345L396 207H207L157 0H99L150 207H37V261H163L210 457H80V508H223L272 710H330L280 508H469L518 710H576L526 508H642V457ZM409 261L456 457H267L220 261H409Z" />
<glyph unicode="$" glyph-name="dollar" horiz-adv-x="619" d="M510 577Q481 609 434 630T326 653V386Q328 386 329 386T333 385Q390 373 435 358T513 321T562 266T579 186Q579 138 561 102T509 43T431 7T331 -6V-103H294V-5Q148 2 38 97L73 154Q108 116 166 89T297
57V324L291 326Q235 339 193 353T122 388T79 438T64 511Q64 558 81 594T128 656T200 696T294 714V815H331V715Q397 713 449 692T544 633L510 577ZM505 179Q505 209 494 230T460 267T404 295T326 318V56Q411 56 458 86T505 179ZM136 521Q136 492 145 473T174 439T224
414T297 393V652Q212 648 174 613T136 521Z" />
<glyph unicode="%" glyph-name="percent" horiz-adv-x="714" d="M190 433Q159 433 132 444T84 474T52 520T40 576Q40 606 52 632T84 677T131 708T190 720Q221 720 248 709T295 678T327 632T339 576Q339 546 328 520T296 475T248 444T190 433ZM190 472Q210 472
228 480T259 503T280 536T288 576Q288 598 280 617T259 650T227 672T190 680Q169 680 151 672T120 649T99 616T91 576Q91 555 99 536T120 503T152 480T190 472ZM525 -10Q494 -10 467 1T420 31T388 77T376 134Q376 164 387 190T419 235T467 266T525 277Q556 277
583 266T631 236T663 190T675 134Q675 104 663 78T631 32T584 1T525 -10ZM525 30Q546 30 563 38T594 61T615 94T623 134Q623 155 615 174T594 207T562 230T525 238Q505 238 487 230T456 207T435 174T427 134Q427 112 435 93T456 60T487 38T525 30ZM65 27L344 367L616
714L651 684L372 344L99 -4L65 27Z" />
<glyph unicode="&amp;" glyph-name="ampersand" horiz-adv-x="667" d="M571 0L489 86Q447 41 393 16T274 -10Q227 -10 186 4T114 43T65 104T47 183Q47 219 59 249T92 304T140 352T197 394Q170 423 152 446T122 488T105 526T100 563Q100 596 113 624T151 674T207
707T278 719Q313 719 343 709T395 681T431 636T444 579Q444 548 432 523T398 474T349 430T289 388L488 180Q508 218 519 262T531 356H589Q588 294 573 239T528 138L661 0H571ZM281 45Q332 45 375 66T451 126L236 353Q183 316 148 276T113 181Q113 148 127 123T166
80T220 54T281 45ZM163 565Q163 553 166 541T180 514T206 478T250 429Q308 467 344 500T381 577Q381 616 352 641T278 666Q253 666 232 658T196 636T172 604T163 565Z" />
<glyph unicode="&apos;" glyph-name="quotesingle" horiz-adv-x="197" d="M69 521V716H128V521H69Z" />
<glyph unicode="(" glyph-name="parenleft" horiz-adv-x="269" d="M44 346Q44 397 55 446T85 544T129 641T184 739L236 714Q216 684 194 640T152 546T121 444T108 343Q108 265 142 173T235 -10L184 -37Q121 57 83 153T44 346Z" />
<glyph unicode=")" glyph-name="parenright" horiz-adv-x="268" d="M224 346Q224 250 186 154T84 -37L34 -10Q63 35 86 81T126 172T152 261T161 343Q161 391 149 443T117 546T76 640T32 714L85 739Q114 690 139 642T183 545T213 447T224 346Z" />
<glyph unicode="*" glyph-name="asterisk" horiz-adv-x="321" d="M87 546L130 608L62 630L73 666L142 640V713H179V640L248 666L259 630L191 608L235 546L203 524L161 589L118 524L87 546Z" />
<glyph unicode="+" glyph-name="plus" horiz-adv-x="415" d="M363 383V327H239V192H176V327H52V383H176V518H239V383H363Z" />
<glyph unicode="," glyph-name="comma" horiz-adv-x="225" d="M86 -81L103 3H80V98H146V3L121 -81H86Z" />
<glyph unicode="-" glyph-name="hyphen" horiz-adv-x="422" d="M65 241V304H357V241H65Z" />
<glyph unicode="." glyph-name="period" horiz-adv-x="189" d="M65 0V98H124V0H65Z" />
<glyph unicode="/" glyph-name="slash" horiz-adv-x="604" d="M576 710L104 0H27L499 710H576Z" />
<glyph unicode="0" glyph-name="zero" horiz-adv-x="612" d="M557 293Q557 227 538 172T486 76T406 13T306 -10Q252 -10 206 12T127 75T74 171T55 293Q55 359 74 414T126 510T206 574T306 597Q360 597 406 574T485 511T538 415T557 293ZM488 293Q488 347 475 391T437
466T380 515T306 533Q265 533 232 516T174 467T137 391T123 293Q123 239 136 195T174 120T231 71T306 54Q346 54 379 71T437 119T474 195T488 293Z" />
<glyph unicode="1" glyph-name="one" horiz-adv-x="428" d="M406 62V0H67V62H209V490Q201 478 182 464T139 438T90 418T46 410V476Q69 476 96 489T148 519T190 551T209 571H279V62H406Z" />
<glyph unicode="2" glyph-name="two" horiz-adv-x="521" d="M44 0Q44 34 50 68T73 137T123 202T210 262Q239 277 270 291T328 324T372 364T389 417Q389 436 381 454T356 487T315 511T257 520Q224 520 198 511T153 488T119 461T98 437L53 486Q59 492 76 508T120
540T185 568T268 581Q314 581 350 569T411 534T449 484T462 424Q462 383 444 353T400 301T343 264T289 237Q257 223 227 206T172 167T133 120T117 62H473V0H44Z" />
<glyph unicode="3" glyph-name="three" horiz-adv-x="534" d="M343 236Q409 225 448 176T488 55Q488 10 472 -27T425 -91T352 -132T257 -147Q181 -147 124 -117T38 -32L85 11Q106 -33 149 -59T257 -85Q332 -85 375 -49T418 56Q418 125 373 165T243 205H218V263H245Q322
263 363 298T404 391Q404 421 393 444T363 482T317 506T259 514Q202 514 159 489T93 418L49 460Q61 486 83 507T133 544T195 567T265 576Q311 576 349 563T416 527T459 470T475 397Q475 367 466 340T440 291T399 255T343 236Z" />
<glyph unicode="4" glyph-name="four" horiz-adv-x="546" d="M356 -127V51H23V111L378 571H424V113H512V51H424V-127H356ZM95 113H363V464L95 113Z" />
<glyph unicode="5" glyph-name="five" horiz-adv-x="545" d="M277 312Q326 312 368 296T441 249T491 178T509 86Q509 33 490 -10T437 -84T358 -132T262 -149Q224 -149 190 -140T126 -112T74 -69T35 -13L80 21Q108 -28 156 -58T263 -88Q300 -88 332 -76T388 -40T425
15T439 85Q439 122 426 152T390 205T336 239T269 251Q222 251 181 231T113 171H50Q51 177 55 198T65 248T78 312T92 384Q109 468 129 571H472V508H180L131 253Q157 281 194 296T277 312Z" />
<glyph unicode="6" glyph-name="six" horiz-adv-x="603" d="M559 234Q559 183 540 139T486 61T406 9T307 -10Q251 -10 204 10T124 69T71 162T52 287Q52 395 71 475T124 609T207 689T314 715Q385 715 441 680T526 583L482 543Q461 594 416 624T314 655Q270 655
234 634T173 574T133 476T118 345Q140 404 193 439T315 474Q366 474 410 456T488 405T540 328T559 234ZM309 50Q347 50 380 64T439 104T479 162T494 234Q494 272 479 305T439 364T380 403T308 418Q270 418 237 404T178 364T138 306T123 234Q123 196 138 163T178
105T237 65T309 50Z" />
<glyph unicode="7" glyph-name="seven" horiz-adv-x="535" d="M417 520H34V583H525L166 -127H88L417 520Z" />
<glyph unicode="8" glyph-name="eight" horiz-adv-x="593" d="M543 197Q543 150 523 113T469 48T390 7T294 -8Q241 -8 196 8T119 53T68 120T50 201Q50 235 62 264T95 315T140 354T192 380Q168 390 147 404T110 438T85 480T75 529Q75 573 95 606T146 663T217 698T297
710Q337 710 376 698T447 664T499 607T519 530Q519 504 510 481T484 439T446 405T400 380Q429 370 455 353T500 312T531 260T543 197ZM474 202Q474 238 458 265T416 312T358 341T295 351Q262 351 231 341T175 311T135 263T120 201Q120 166 136 139T177 92T234 63T298
53Q330 53 361 63T418 93T458 140T474 202ZM143 526Q143 497 157 475T193 437T242 413T296 405Q323 405 350 413T399 437T436 476T450 528Q450 556 437 578T403 616T353 640T295 648Q266 648 239 640T190 616T156 577T143 526Z" />
<glyph unicode="9" glyph-name="nine" horiz-adv-x="586" d="M36 327Q36 378 55 422T109 500T189 552T288 571Q344 571 391 551T471 492T524 399T543 274Q543 166 524 86T471 -48T388 -128T281 -154Q211 -154 155 -119T69 -22L113 18Q134 -33 179 -63T281 -94Q325
-94 361 -73T423 -13T463 84T478 216Q455 157 402 122T280 87Q229 87 185 105T107 156T55 233T36 327ZM287 511Q249 511 216 497T157 457T116 399T101 327Q101 289 116 256T156 197T215 158T287 143Q325 143 359 157T418 197T457 255T472 327Q472 364 458 397T418
456T359 496T287 511Z" />
<glyph unicode=":" glyph-name="colon" horiz-adv-x="188" d="M65 420V518H123V420H65ZM65 0V98H123V0H65Z" />
<glyph unicode=";" glyph-name="semicolon" horiz-adv-x="205" d="M70 420V518H128V420H70ZM76 -81L93 3H70V98H136V3L111 -81H76Z" />
<glyph unicode="&lt;" glyph-name="less" horiz-adv-x="508" d="M33 276L452 528V455L132 259L452 64V-11L33 239V276Z" />
<glyph unicode="=" glyph-name="equal" horiz-adv-x="438" d="M68 194V243H370V194H68ZM68 309V358H370V309H68Z" />
<glyph unicode="&gt;" glyph-name="greater" horiz-adv-x="508" d="M474 239L55 -11V64L375 259L55 455V528L474 276V239Z" />
<glyph unicode="?" glyph-name="question" horiz-adv-x="476" d="M154 202Q154 268 174 307T239 372Q259 384 283 396T328 427T363 470T378 532Q378 565 367 589T336 629T293 654T242 662Q188 662 146 633T81 560L34 590Q48 621 70 645T119 685T178 710T243 719Q280
719 315 708T377 672T421 612T438 528Q438 488 427 461T396 413T353 379T303 350Q285 340 269 330T240 303T220 262T212 202H154ZM155 0V107H214V0H155Z" />
<glyph unicode="@" glyph-name="at" horiz-adv-x="837" d="M417 603Q491 603 557 576T673 498T752 377T781 222Q781 208 780 185T773 135T759 82T733 33T693 -2T635 -16Q610 -16 595 -9T570 12T557 41T551 76Q523 47 479 26T382 5Q311 5 272 42T232 139Q232 177
248 203T291 244T351 266T417 273Q461 273 494 265T544 250Q544 286 539 315T519 366T481 399T420 411Q381 411 345 399T280 364L262 403Q298 427 338 441T426 455Q481 455 513 437T563 389T584 323T589 250V121Q589 99 590 81T597 49T613 29T641 21Q672 21 692
42T724 95T740 161T745 224Q745 296 720 359T651 468T546 542T416 569Q348 569 288 544T182 473T110 366T83 230Q83 159 108 97T176 -12T280 -85T411 -112Q454 -112 490 -102T564 -74L577 -106Q536 -126 494 -136T410 -146Q335 -146 269 -118T154 -40T76 80T47
230Q47 315 77 383T159 501T278 576T417 603ZM478 70Q520 90 531 117T543 172V212Q530 214 497 224T415 234Q389 234 364 230T320 214T290 186T278 141Q278 99 308 74T385 48Q410 48 434 54T478 70Z" />
<glyph unicode="A" glyph-name="A" horiz-adv-x="676" d="M309 710H368L663 0H589L497 222H178L87 0H12L309 710ZM481 277L338 628L193 277H481Z" />
<glyph unicode="B" glyph-name="B" horiz-adv-x="666" d="M623 183Q623 143 607 110T564 52T501 14T424 0H89V710H431Q468 710 498 694T549 653T581 595T593 529Q593 475 566 431T491 364Q552 346 587 297T623 183ZM553 195Q553 221 544 245T519 288T480 318T431
330H159V61H424Q451 61 474 72T515 101T543 144T553 195ZM159 649V387H403Q429 387 451 398T490 427T515 468T524 518Q524 545 516 569T492 610T455 638T409 649H159Z" />
<glyph unicode="C" glyph-name="C" horiz-adv-x="686" d="M42 360Q42 424 64 487T130 601T236 682T379 714Q474 714 541 671T641 559L586 525Q569 560 545 584T492 623T434 644T375 651Q311 651 262 625T180 557T129 463T112 356Q112 297 132 243T188 148T272
82T378 57Q408 57 439 64T500 88T555 129T597 189L655 159Q638 119 607 89T538 37T458 5T374 -6Q301 -6 240 26T135 109T67 226T42 360Z" />
<glyph unicode="D" glyph-name="D" horiz-adv-x="715" d="M89 0V710H330Q415 710 478 682T584 606T648 494T670 356Q670 275 646 210T578 98T471 26T330 0H89ZM600 356Q600 420 582 473T530 566T445 626T330 648H159V62H330Q396 62 446 84T531 146T582 239T600 356Z" />
<glyph unicode="E" glyph-name="E" horiz-adv-x="609" d="M566 62V0H89V710H557V648H159V392H506V333H159V62H566Z" />
<glyph unicode="F" glyph-name="F" horiz-adv-x="589" d="M89 0V710H555V648H159V387H493V329H159V0H89Z" />
<glyph unicode="G" glyph-name="G" horiz-adv-x="716" d="M602 104Q503 -5 374 -5Q302 -5 242 26T137 108T67 223T42 356Q42 427 66 492T135 606T239 685T370 715Q422 715 465 704T541 672T599 623T641 560L587 524Q552 590 496 621T369 652Q310 652 263 627T182
561T130 466T112 355Q112 295 132 241T189 147T273 82T379 58Q440 58 495 86T602 177V295H444V349H661V0H602V104Z" />
<glyph unicode="H" glyph-name="H" horiz-adv-x="738" d="M649 710V0H580V332H159V0H89V710H159V394H580V710H649Z" />
<glyph unicode="I" glyph-name="I" horiz-adv-x="248" d="M89 0V710H159V0H89Z" />
<glyph unicode="J" glyph-name="J" horiz-adv-x="481" d="M34 89Q56 74 90 63T168 52Q222 52 254 71T304 129T326 222T331 349V710H401V349Q401 268 394 202T362 88T292 15T168 -11Q78 -11 14 33L34 89Z" />
<glyph unicode="K" glyph-name="K" horiz-adv-x="643" d="M89 0V709H159V297L550 710H627L337 398L642 0H565L293 357L159 218V0H89Z" />
<glyph unicode="L" glyph-name="L" horiz-adv-x="583" d="M89 0V710H159V62H569V0H89Z" />
<glyph unicode="M" glyph-name="M" horiz-adv-x="877" d="M718 0V583L459 132H418L159 583V0H89V710H161L438 224L717 710H788V0H718Z" />
<glyph unicode="N" glyph-name="N" horiz-adv-x="772" d="M159 580V0H89V710H143L613 119V709H683V0H622L159 580Z" />
<glyph unicode="O" glyph-name="O" horiz-adv-x="751" d="M375 -5Q301 -5 240 25T134 106T66 222T42 355Q42 426 67 491T138 606T244 685T376 715Q450 715 511 684T616 601T684 486T708 354Q708 283 683 218T613 104T507 25T375 -5ZM112 355Q112 297 131 244T185
149T268 83T375 58Q435 58 484 84T567 152T619 247T638 355Q638 413 619 466T564 561T481 626T375 651Q315 651 266 626T183 558T131 463T112 355Z" />
<glyph unicode="P" glyph-name="P" horiz-adv-x="622" d="M89 0V710H383Q429 710 467 691T534 640T578 568T594 487Q594 443 579 403T537 331T473 281T389 262H159V0H89ZM159 324H386Q417 324 442 337T486 373T514 425T524 487Q524 520 513 549T482 601T436 635T380
648H159V324Z" />
<glyph unicode="Q" glyph-name="Q" horiz-adv-x="749" d="M569 63Q528 31 480 13T375 -5Q301 -5 240 26T134 107T66 222T42 355Q42 426 67 491T138 606T244 685T376 715Q450 715 511 684T616 601T684 486T708 354Q708 281 682 215T608 99L692 0H623L569 63ZM375
58Q420 58 458 72T528 112L439 218H508L565 150Q600 192 619 245T638 355Q638 413 619 466T564 561T481 627T375 652Q315 652 266 627T183 559T131 464T112 355Q112 297 131 244T185 149T268 83T375 58Z" />
<glyph unicode="R" glyph-name="R" horiz-adv-x="653" d="M89 0V710H389Q435 710 473 691T540 640T583 568T599 487Q599 448 588 413T556 349T506 301T441 274L615 0H536L369 262H159V0H89ZM159 324H391Q422 324 447 337T491 374T519 426T529 487Q529 519 518
548T487 600T441 635T385 648H159V324Z" />
<glyph unicode="S" glyph-name="S" horiz-adv-x="607" d="M504 577Q474 611 424 632T310 653Q216 653 173 618T130 521Q130 489 141 469T177 433T238 407T327 385Q384 373 429 358T507 321T556 266T573 186Q573 137 554 101T501 41T420 6T317 -6Q152 -6 32 97L67
154Q86 134 112 116T171 85T241 64T319 56Q404 56 451 86T499 179Q499 212 486 234T445 273T378 302T285 326Q229 339 187 353T116 388T73 438T58 511Q58 560 76 598T129 662T209 701T311 715Q382 715 437 694T538 633L504 577Z" />
<glyph unicode="T" glyph-name="T" horiz-adv-x="610" d="M593 648H340V0H270V648H17V710H593V648Z" />
<glyph unicode="U" glyph-name="U" horiz-adv-x="755" d="M377 58Q444 58 488 83T559 150T596 245T607 352V710H677V352Q677 280 661 216T610 102T517 24T378 -5Q294 -5 237 25T144 106T94 220T79 352V710H148V352Q148 296 159 243T196 149T267 83T377 58Z" />
<glyph unicode="V" glyph-name="V" horiz-adv-x="679" d="M86 710L340 87L593 710H666L370 0H309L13 710H86Z" />
<glyph unicode="W" glyph-name="W" horiz-adv-x="1046" d="M356 705H422L522 453L623 705H690L566 402L702 81L959 710H1035L734 0H672L523 351L373 0H312L12 710H87L345 81L480 402L356 705Z" />
<glyph unicode="X" glyph-name="X" horiz-adv-x="632" d="M84 710L317 400L550 710H627L354 350L619 0H542L317 300L92 0H13L278 350L5 710H84Z" />
<glyph unicode="Y" glyph-name="Y" horiz-adv-x="651" d="M93 710L325 328L559 710H635L360 264V0H290V266L16 710H93Z" />
<glyph unicode="Z" glyph-name="Z" horiz-adv-x="629" d="M31 55L514 648H39V710H595V655L118 62H594V0H31V55Z" />
<glyph unicode="[" glyph-name="bracketleft" horiz-adv-x="258" d="M88 -40V740H207V683H152V17H207V-40H88Z" />
<glyph unicode="\" glyph-name="backslash" horiz-adv-x="568" d="M105 710L540 0H464L28 710H105Z" />
<glyph unicode="]" glyph-name="bracketright" horiz-adv-x="258" d="M50 -40V17H106V683H50V740H170V-40H50Z" />
<glyph unicode="^" glyph-name="asciicircum" horiz-adv-x="539" d="M43 303L241 710H299L496 303H436L270 646L101 303H43Z" />
<glyph unicode="_" glyph-name="underscore" horiz-adv-x="511" d="M65 -62V0H446V-62H65Z" />
<glyph unicode="`" glyph-name="grave" horiz-adv-x="222" d="M49 730H120L180 637L136 620L49 730Z" />
<glyph unicode="a" glyph-name="a" horiz-adv-x="545" d="M206 -10Q169 -10 138 2T83 37T46 88T33 152Q33 186 49 215T94 265T163 297T251 309Q291 309 332 302T405 282V329Q405 398 366 438T258 479Q218 479 176 463T91 417L67 462Q168 530 263 530Q361 530 417
475T473 323V88Q473 60 498 60V0Q481 -3 472 -3Q446 -3 432 10T416 46L414 87Q378 40 324 15T206 -10ZM222 42Q275 42 319 62T387 115Q396 124 400 134T405 154V239Q371 252 335 259T260 266Q188 266 143 236T98 157Q98 133 107 112T133 76T173 51T222 42Z" />
<glyph unicode="b" glyph-name="b" horiz-adv-x="617" d="M330 -10Q268 -10 217 21T136 101V0H75V730H143V412Q178 465 227 497T341 530Q396 530 439 507T513 446T560 359T577 259Q577 204 558 155T506 70T428 12T330 -10ZM314 50Q357 50 392 67T453 114T493 181T508
259Q508 300 495 338T457 405T398 452T322 470Q291 470 264 460T214 431T173 390T143 340V178Q147 151 164 128T206 87T259 60T314 50Z" />
<glyph unicode="c" glyph-name="c" horiz-adv-x="549" d="M39 262Q39 317 58 366T111 451T194 509T300 530Q374 530 429 497T512 406L446 385Q424 425 385 447T297 470Q257 470 223 454T163 411T123 345T108 262Q108 218 123 179T164 112T224 67T298 50Q323 50
347 57T393 76T429 105T450 139L517 119Q506 91 485 68T436 27T373 0T301 -10Q244 -10 196 11T113 70T59 157T39 262Z" />
<glyph unicode="d" glyph-name="d" horiz-adv-x="622" d="M289 -10Q235 -10 189 12T110 72T59 157T40 259Q40 314 58 363T107 450T182 508T278 530Q344 530 395 496T475 412V730H543V88Q543 60 567 60V0Q552 -3 543 -3Q519 -3 501 12T483 50V101Q452 50 399 20T289
-10ZM304 50Q329 50 357 60T411 87T453 128T475 179V340Q465 367 446 390T403 432T350 460T295 470Q253 470 219 452T161 405T123 337T110 259Q110 217 125 179T166 113T227 67T304 50Z" />
<glyph unicode="e" glyph-name="e" horiz-adv-x="587" d="M300 -10Q243 -10 196 11T113 70T59 157T39 262Q39 317 58 365T112 450T195 508T299 530Q356 530 403 509T485 450T538 365T557 263Q557 255 557 247T556 236H110Q113 194 129 159T172 97T231 57T303 42Q328
42 353 49T399 68T437 97T463 136L522 120Q510 91 488 68T437 27T373 0T300 -10ZM492 288Q489 330 473 364T431 424T372 463T300 477Q262 477 228 463T169 424T128 364T109 288H492Z" />
<glyph unicode="f" glyph-name="f" horiz-adv-x="330" d="M100 0V467H28V521H100V535Q100 631 141 685T253 740Q284 740 313 731T363 707L342 658Q328 669 308 675T266 681Q218 681 193 644T168 537V521H312V467H168V0H100Z" />
<glyph unicode="g" glyph-name="g" horiz-adv-x="618" d="M284 -7Q230 -7 186 15T109 75T58 160T40 259Q40 313 57 362T107 449T183 508T282 530Q349 530 398 497T482 412V521H543V-2Q543 -56 523 -97T468 -167T387 -209T288 -223Q198 -223 143 -191T54 -105L96
-72Q127 -122 178 -145T288 -169Q326 -169 360 -159T419 -128T460 -76T475 -2V101Q445 51 393 22T284 -7ZM303 50Q333 50 362 61T414 90T454 132T475 179V340Q464 368 445 392T402 433T351 460T295 470Q251 470 217 452T158 403T122 335T109 258Q109 216 124 178T165
112T227 67T303 50Z" />
<glyph unicode="h" glyph-name="h" horiz-adv-x="583" d="M513 0H445V291Q445 380 415 424T325 468Q296 468 268 457T214 425T171 378T143 319V0H75V730H143V403Q174 462 229 496T348 530Q393 530 424 514T475 468T504 397T513 305V0Z" />
<glyph unicode="i" glyph-name="i" horiz-adv-x="218" d="M75 0V521H143V0H75ZM75 630V730H143V630H75Z" />
<glyph unicode="j" glyph-name="j" horiz-adv-x="225" d="M-3 -181Q-36 -181 -65 -172T-117 -142L-84 -96Q-68 -110 -49 -115T-11 -120Q7 -120 23 -113T53 -94T74 -64T82 -27V521H150V-23Q150 -58 137 -87T103 -137T54 -169T-3 -181ZM82 630V730H150V630H82Z" />
<glyph unicode="k" glyph-name="k" horiz-adv-x="530" d="M447 0L255 267L143 163V0H75V730H143V234L436 520H513L300 307L521 0H447Z" />
<glyph unicode="l" glyph-name="l" horiz-adv-x="272" d="M78 730H146V118Q146 89 162 73T207 56Q218 56 233 59T261 67L273 12Q254 4 227 -1T179 -6Q132 -6 105 20T78 95V730Z" />
<glyph unicode="m" glyph-name="m" horiz-adv-x="919" d="M850 0H782V291Q782 382 753 425T667 468Q637 468 611 457T562 426T522 379T496 318V0H428V291Q428 384 400 426T314 468Q255 468 209 427T143 319V0H75V521H137V403Q169 463 221 496T336 530Q402 530
441 493T490 396Q563 530 691 530Q735 530 765 514T814 469T841 398T850 305V0Z" />
<glyph unicode="n" glyph-name="n" horiz-adv-x="583" d="M513 0H445V291Q445 384 418 426T333 468Q303 468 273 457T218 426T172 379T143 319V0H75V521H137V403Q169 460 228 495T358 530Q401 530 431 514T479 469T505 398T513 305V0Z" />
<glyph unicode="o" glyph-name="o" horiz-adv-x="595" d="M297 -10Q240 -10 193 11T112 70T58 156T39 259Q39 314 58 363T112 449T194 508T297 530Q353 530 400 508T482 449T536 363T556 259Q556 205 537 156T484 70T402 12T297 -10ZM108 258Q108 214 123 177T163
111T223 66T297 50Q336 50 370 66T431 111T472 178T487 260Q487 303 472 341T431 408T371 453T297 470Q258 470 224 454T164 408T123 341T108 258Z" />
<glyph unicode="p" glyph-name="p" horiz-adv-x="617" d="M341 -10Q275 -10 225 23T143 108V-213H75V521H136V420Q168 469 219 499T330 530Q384 530 429 508T507 448T558 361T577 260Q577 205 560 156T512 70T437 12T341 -10ZM322 50Q364 50 398 68T457 115T495
182T508 260Q508 302 493 340T452 407T391 453T314 470Q288 470 260 460T207 432T165 391T143 341V181Q155 153 173 129T215 88T266 60T322 50Z" />
<glyph unicode="q" glyph-name="q" horiz-adv-x="617" d="M276 -10Q223 -10 180 12T105 72T57 158T40 260Q40 314 59 363T111 449T190 508T288 530Q318 530 346 522T400 499T445 464T481 419V521H542V-122Q542 -150 567 -151V-210Q557 -212 548 -212T529 -212Q506
-210 490 -193T474 -151V108Q436 50 386 20T276 -10ZM297 50Q327 50 353 60T402 86T443 125T474 173V334Q470 361 453 385T412 429T358 459T301 470Q259 470 224 452T163 405T123 337T109 259Q109 217 123 179T162 113T221 67T297 50Z" />
<glyph unicode="r" glyph-name="r" horiz-adv-x="351" d="M335 461Q266 459 215 423T143 324V0H75V521H139V396Q168 456 217 490T322 524Q330 524 335 523V461Z" />
<glyph unicode="s" glyph-name="s" horiz-adv-x="487" d="M248 -10Q187 -10 129 10T29 68L60 114Q104 78 149 60T247 42Q310 42 347 67T385 140Q385 162 375 176T346 202T297 221T228 239Q183 250 150 261T96 286T64 320T53 372Q53 411 68 441T110 490T172 520T248
530Q308 530 357 511T436 459L403 419Q374 449 333 464T246 479Q219 479 196 474T156 456T128 426T118 382Q118 361 125 348T148 326T188 309T248 293Q298 281 336 269T399 241T438 202T451 146Q451 74 396 32T248 -10Z" />
<glyph unicode="t" glyph-name="t" horiz-adv-x="335" d="M325 25Q319 22 308 17T281 7T247 -2T207 -6Q185 -6 165 0T130 18T106 50T97 94V467H25V521H97V697H165V521H285V467H165V113Q167 84 185 71T228 57Q257 57 279 66T307 80L325 25Z" />
<glyph unicode="u" glyph-name="u" horiz-adv-x="594" d="M238 -10Q153 -10 112 46T70 215V521H138V227Q138 50 259 50Q289 50 318 60T371 89T415 134T447 193V521H515V88Q515 60 539 60V0Q527 -2 520 -2T509 -2Q485 -1 470 15T455 58V118Q421 57 363 24T238 -10Z" />
<glyph unicode="v" glyph-name="v" horiz-adv-x="533" d="M231 0L19 521H89L268 63L448 521H514L302 0H231Z" />
<glyph unicode="w" glyph-name="w" horiz-adv-x="813" d="M731 521H798L574 0H518L406 266L295 0H239L15 521H81L271 70L370 308L281 520H338L406 350L474 520H532L443 308L542 70L731 521Z" />
<glyph unicode="x" glyph-name="x" horiz-adv-x="504" d="M88 521L244 317L252 302L260 317L416 521H489L290 259L489 0H416L260 203L252 217L244 203L88 0H15L214 259L15 521H88Z" />
<glyph unicode="y" glyph-name="y" horiz-adv-x="542" d="M105 -160Q113 -161 120 -161T135 -162Q153 -162 163 -157T184 -135T206 -86T242 0L15 521H85L278 63L457 521H522L252 -151Q241 -180 216 -201T146 -223Q136 -223 127 -223T105 -220V-160Z" />
<glyph unicode="z" glyph-name="z" horiz-adv-x="492" d="M31 46L383 470H39V521H457V475L106 51H456V0H31V46Z" />
<glyph unicode="{" glyph-name="braceleft" horiz-adv-x="259" d="M154 683V422Q154 410 149 392T127 360Q143 346 148 328T154 298V26H209V-31H115Q107 -31 100 -25T92 -1V280Q92 300 82 316T53 335V387Q63 387 70 393T83 407T90 424T92 440V710Q92 729 101 734T115
740H209V683H154Z" />
<glyph unicode="|" glyph-name="bar" horiz-adv-x="231" d="M86 -130V775H145V-130H86Z" />
<glyph unicode="}" glyph-name="braceright" horiz-adv-x="259" d="M50 683V740H144Q149 740 158 735T167 710V440Q167 434 169 425T175 407T187 393T205 387V335Q186 333 177 317T167 280V-1Q167 -18 160 -24T144 -31H50V26H105V298Q105 309 110 327T131 360Q115
374 110 392T105 422V683H50Z" />
<glyph unicode="~" glyph-name="asciitilde" horiz-adv-x="511" d="M66 241Q66 246 72 262T90 297T123 329T174 344Q197 344 217 335T256 315T294 295T334 286Q353 286 366 293T387 310T399 327T403 338H446Q446 336 441 321T422 288T387 256T333 241Q308 241
287 250T247 270T209 290T173 299Q155 299 143 290T124 271T113 251T109 241H66V241Z" />
<glyph unicode="&#xa0;" glyph-name="uni00A0" horiz-adv-x="255" />
<glyph unicode="&#xa1;" glyph-name="exclamdown" horiz-adv-x="251" d="M159 487V-2H91V487H159ZM159 715V603H91V715H159Z" />
<glyph unicode="&#xa2;" glyph-name="cent" horiz-adv-x="561" d="M276 -120V-9Q225 -5 182 19T109 81T61 164T43 258Q43 309 59 355T106 439T179 500T276 529V645H313V529Q388 527 438 495T516 406L451 385Q428 426 392 446T313 468V51Q332 52 355 59T398 77T434
104T455 139L522 119Q510 87 486 63T433 22T372 -2T313 -10V-120H276ZM113 258Q113 221 125 187T159 125T211 79T276 54V466Q237 462 207 443T156 395T124 330T113 258Z" />
<glyph unicode="&#xa3;" glyph-name="sterling" horiz-adv-x="499" d="M52 372H146Q135 393 123 413T101 455T85 498T78 544Q78 580 92 611T131 665T188 701T259 715Q313 715 361 687T440 610L400 568Q376 610 338 634T257 658Q233 658 212 649T175 624T150 587T141
540Q141 518 148 498T165 457T187 416T210 372H388V318H230Q238 288 238 258Q238 208 215 162T135 54Q171 63 208 63Q229 63 247 60T282 54T315 48T350 45Q370 45 391 49T439 63L456 11Q430 -2 402 -8T347 -15Q324 -15 304 -12T264 -4T224 5T180 9Q157 9 128 5T72
-8L54 42Q88 76 112 104T150 158T171 206T178 254Q178 271 176 287T168 318H52V372Z" />
<glyph unicode="&#xa4;" glyph-name="currency" horiz-adv-x="537" d="M156 480Q201 519 268 519Q301 519 329 509T381 480L451 551L485 518L413 446Q430 423 439 395T448 336Q448 306 439 278T412 226L485 154L455 125L381 194Q359 176 331 166T268 155Q234 155
206 165T154 194L83 125L53 154L124 225Q88 275 88 336Q88 400 123 447L53 518L86 551L156 480ZM145 335Q145 308 154 284T181 242T220 214T268 203Q293 203 315 213T355 242T381 284T391 337Q391 365 382 389T355 432T316 460T268 470Q242 470 220 460T181 431T155
388T145 335Z" />
<glyph unicode="&#xa5;" glyph-name="yen" horiz-adv-x="676" d="M432 366H516V318H405L372 264V237H517V189H372V0H302V189H159V237H302V266L271 318H159V366H245L29 710H105L337 328L571 710H648L432 366Z" />
<glyph unicode="&#xa6;" glyph-name="brokenbar" horiz-adv-x="234" d="M147 277V-130H87V277H147ZM147 775V368H87V775H147Z" />
<glyph unicode="&#xa7;" glyph-name="section" horiz-adv-x="506" d="M417 195Q440 181 451 155T463 93Q463 45 444 11T395 -45T329 -77T258 -88Q225 -88 196 -80T143 -58T98 -29T62 3L107 45Q178 -23 255 -23Q281 -23 305 -16T349 5T381 41T393 90Q393 119 381
136T349 162T308 174T267 179Q173 187 123 225T72 338Q72 368 79 390T98 427Q77 442 62 473T47 542Q47 581 63 612T107 667T171 702T249 715Q313 715 357 687T427 620L373 595Q365 611 351 622T320 640T285 650T249 653Q223 653 199 646T156 625T126 589T115 540Q115
508 128 490T161 461T204 447T247 442Q282 439 317 431T382 406T429 361T447 289Q447 258 439 234T417 195ZM138 329Q138 284 162 265T221 237T292 227T353 215Q367 226 374 246T382 287Q382 316 370 334T338 364T295 380T249 386Q226 387 206 389T163 400Q152
389 145 371T138 329Z" />
<glyph unicode="&#xa8;" glyph-name="dieresis" horiz-adv-x="329" d="M61 633V727H119V633H61ZM210 633V727H268V633H210Z" />
<glyph unicode="&#xa9;" glyph-name="copyright" horiz-adv-x="832" d="M415 -7Q336 -7 269 20T152 96T76 211T48 355Q48 432 75 498T152 612T268 687T415 715Q494 715 562 688T679 612T756 498T784 355Q784 277 756 211T679 97T562 21T415 -7ZM415 26Q485 26
546 50T652 117T723 220T749 353Q749 424 724 484T654 588T548 657T415 682Q344 682 283 657T178 589T108 485T83 354Q83 284 108 224T177 120T282 51T415 26ZM423 123Q377 123 335 139T261 186T209 259T189 355Q189 397 203 439T245 514T316 568T417 589Q483 589
534 561T609 478L543 457Q533 479 518 493T485 515T450 526T417 529Q377 529 348 514T299 474T269 418T259 355Q259 314 274 282T312 227T363 194T419 182Q457 182 495 202T550 258L616 239Q609 221 592 201T550 163T493 134T423 123Z" />
<glyph unicode="&#xaa;" glyph-name="ordfeminine" horiz-adv-x="434" d="M166 346Q141 346 120 354T82 378T57 413T48 456Q48 480 59 500T90 534T137 557T197 565Q224 565 251 561T298 547V575Q298 618 273 643T203 668Q150 668 89 627L69 664Q139 710 208 710Q278
710 318 674T358 569V426Q358 405 377 404V352Q368 351 362 351T349 350Q331 351 321 361T308 386L307 411Q282 379 245 363T166 346ZM182 391Q214 391 242 402T286 434Q298 446 298 460V512Q278 521 254 524T206 528Q160 528 132 510T104 460Q104 431 126 411T182
391Z" />
<glyph unicode="&#xab;" glyph-name="guillemotleft" horiz-adv-x="573" d="M41 276L289 454V395L96 259L289 125V66L41 239V276ZM261 276L510 454V395L317 259L510 125V66L261 239V276Z" />
<glyph unicode="&#xac;" glyph-name="logicalnot" horiz-adv-x="582" d="M512 364V126H452V302H73V364H512Z" />
<glyph unicode="&#xad;" glyph-name="uni00AD" horiz-adv-x="570" d="M65 241V304H504V241H65Z" />
<glyph unicode="&#xae;" glyph-name="registered" horiz-adv-x="832" d="M416 -7Q336 -7 269 20T153 96T76 211T48 355Q48 432 75 498T152 612T269 687T416 715Q495 715 562 688T679 612T756 498T784 355Q784 277 756 211T679 97T563 21T416 -7ZM416 25Q486 25
546 49T652 116T722 219T748 354Q748 424 723 484T654 588T549 657T416 682Q344 682 283 657T178 588T109 485T84 355Q84 284 109 224T178 120T283 50T416 25ZM263 580H454Q483 580 508 568T551 535T579 489T589 437Q589 388 561 350T486 302L597 127H539L433 295H316V127H263V580ZM454
341Q495 341 516 368T537 437Q537 479 513 505T450 532H316V341H454Z" />
<glyph unicode="&#xaf;" glyph-name="overscore" horiz-adv-x="396" d="M54 663V710H343V663H54Z" />
<glyph unicode="&#xb0;" glyph-name="degree" horiz-adv-x="266" d="M50 642Q50 677 74 700T133 724Q168 724 192 701T216 642Q216 606 192 582T133 558Q98 558 74 582T50 642ZM102 672Q89 659 89 641Q89 623 102 610Q115 597 133 597Q152 597 165 610Q177 624
177 641Q177 658 165 672Q153 685 133 685Q114 685 102 672Z" />
<glyph unicode="&#xb1;" glyph-name="plusminus" horiz-adv-x="467" d="M72 61V118H395V61H72ZM395 393V336H265V196H202V336H72V393H202V533H265V393H395Z" />
<glyph unicode="&#xb2;" glyph-name="twosuperior" horiz-adv-x="388" d="M36 407Q36 446 43 474T67 524T106 562T162 590Q185 599 209 607T253 627T286 654T299 693Q299 724 274 745T197 767Q172 767 152 762T116 748T89 730T70 712L40 743Q44 748 56 759T88
782T137 802T203 811Q276 811 312 777T349 692Q349 661 335 640T299 603T254 579T208 563Q175 552 153 538T117 509T97 479T91 450H344V407H36Z" />
<glyph unicode="&#xb3;" glyph-name="threesuperior" horiz-adv-x="390" d="M190 401Q127 401 85 425T35 490L62 519Q63 507 73 494T99 471T139 453T189 446Q238 446 272 465T306 517Q306 552 266 571T157 591H134V632H157Q220 632 256 648T292 698Q292 731 261
750T186 770Q144 770 114 755T69 714L39 748Q57 777 97 794T186 811Q219 811 247 803T296 780T328 745T340 701Q340 632 249 613Q296 606 323 578T351 511Q351 485 338 465T303 430T252 409T190 401Z" />
<glyph unicode="&#xb4;" glyph-name="acute" horiz-adv-x="222" d="M94 620L49 637L108 730H180L94 620Z" />
<glyph unicode="&#xb5;" glyph-name="mu" horiz-adv-x="620" d="M82 521H150V227Q150 50 273 50Q303 50 331 60T384 89T428 134T460 193V521H528V88Q528 60 552 60V0Q540 -2 533 -2T519 -2Q496 0 482 16T468 52V118Q455 91 434 68T387 28T330 0T269 -10Q221 -10
191 13T146 75V-212H82V521Z" />
<glyph unicode="&#xb6;" glyph-name="paragraph" horiz-adv-x="602" d="M34 469Q34 583 108 646T316 710H557V656H487V-80H427V231H353V-80H294V231Q234 232 186 248T104 296T52 370T34 469ZM93 471Q93 424 109 390T152 334T216 299T294 285V656Q196 655 145 606T93
471ZM427 656H353V285H427V656Z" />
<glyph unicode="&#xb7;" glyph-name="middot" horiz-adv-x="189" d="M65 246V358H124V246H65Z" />
<glyph unicode="&#xb8;" glyph-name="cedilla" horiz-adv-x="283" d="M39 -126Q53 -133 77 -138T127 -144Q184 -144 184 -109Q184 -89 171 -81T134 -73Q113 -73 90 -77T54 -87L111 18L144 5L109 -51Q118 -47 128 -46T147 -45Q182 -45 202 -60T223 -106Q223 -140
197 -158T121 -176Q92 -176 67 -171T22 -157L39 -126Z" />
<glyph unicode="&#xb9;" glyph-name="onesuperior" horiz-adv-x="272" d="M250 451V406H49V451H130V760Q125 754 114 746T90 730T61 717T34 711V756Q50 756 67 764T98 782T121 801T130 811H175V451H250Z" />
<glyph unicode="&#xba;" glyph-name="ordmasculine" horiz-adv-x="449" d="M224 346Q184 346 151 361T94 401T57 459T44 528Q44 565 57 598T94 656T151 695T224 710Q264 710 297 696T354 656T391 598T405 528Q405 492 392 459T355 401T298 361T224 346ZM101 527Q101
499 110 475T137 433T176 405T224 395Q249 395 271 405T311 434T337 476T347 529Q347 557 338 581T311 623T272 651T224 661Q199 661 177 651T138 622T111 580T101 527Z" />
<glyph unicode="&#xbb;" glyph-name="guillemotright" horiz-adv-x="573" d="M532 239L284 66V125L477 259L284 395V454L532 276V239ZM312 239L63 66V125L256 259L63 395V454L312 276V239Z" />
<glyph unicode="&#xbc;" glyph-name="onequarter" horiz-adv-x="825" d="M687 0V103H459V145L701 399H732V147H789V103H732V0H687ZM507 147H688V338L507 147ZM133 27L412 367L684 714L719 684L440 344L167 -4L133 27ZM260 371V326H59V371H140V680Q135 674 124
666T100 650T71 637T44 631V676Q60 676 77 684T108 702T131 721T140 731H185V371H260Z" />
<glyph unicode="&#xbd;" glyph-name="onehalf" horiz-adv-x="864" d="M516 0Q516 39 523 67T546 118T585 156T639 184Q661 193 684 201T727 220T759 247T772 286Q772 317 748 339T673 361Q649 361 629 356T594 342T568 323T549 305L520 337Q524 342 536 353T567
375T615 395T679 404Q750 404 785 370T821 285Q821 254 807 233T773 197T729 174T685 158Q652 147 631 133T597 103T579 73T574 44H822V0H516ZM99 27L378 367L650 714L685 684L406 344L133 -4L99 27ZM261 371V326H60V371H141V680Q136 674 125 666T101 650T72 637T45
631V676Q61 676 78 684T109 702T132 721T141 731H186V371H261Z" />
<glyph unicode="&#xbe;" glyph-name="threequarters" horiz-adv-x="837" d="M197 321Q134 321 92 345T42 410L69 439Q70 427 80 414T106 391T146 373T196 366Q245 366 279 385T313 437Q313 472 273 491T164 511H141V552H164Q227 552 263 568T299 618Q299 651 268
670T193 690Q151 690 121 675T76 634L46 668Q64 697 104 714T193 731Q226 731 254 723T303 700T335 665T347 621Q347 552 256 533Q303 526 330 498T358 431Q358 405 345 385T310 350T259 329T197 321ZM696 0V103H468V145L710 399H741V147H798V103H741V0H696ZM516
147H697V338L516 147ZM166 27L445 367L717 714L752 684L473 344L200 -4L166 27Z" />
<glyph unicode="&#xbf;" glyph-name="questiondown" horiz-adv-x="469" d="M318 304Q318 238 298 199T233 134Q213 122 189 110T144 79T109 36T94 -26Q94 -59 105 -83T136 -123T179 -148T230 -156Q284 -156 326 -127T391 -54L438 -84Q424 -115 402 -139T353 -179T294
-204T229 -213Q192 -213 157 -202T95 -166T51 -106T34 -22Q34 18 45 45T76 93T119 127T169 156Q187 166 203 176T232 203T252 244T260 304H318ZM317 506V399H258V506H317Z" />
<glyph unicode="&#xc0;" glyph-name="Agrave" horiz-adv-x="676" d="M309 710H368L663 0H589L497 222H178L87 0H12L309 710ZM481 277L338 628L193 277H481ZM245 917H316L376 824L332 807L245 917Z" />
<glyph unicode="&#xc1;" glyph-name="Aacute" horiz-adv-x="676" d="M309 710H368L663 0H589L497 222H178L87 0H12L309 710ZM481 277L338 628L193 277H481ZM345 807L300 824L359 917H431L345 807Z" />
<glyph unicode="&#xc2;" glyph-name="Acircumflex" horiz-adv-x="676" d="M309 710H368L663 0H589L497 222H178L87 0H12L309 710ZM481 277L338 628L193 277H481ZM215 832L313 917H363L462 832L423 811L338 874L253 811L215 832Z" />
<glyph unicode="&#xc3;" glyph-name="Atilde" horiz-adv-x="676" d="M309 710H368L663 0H589L497 222H178L87 0H12L309 710ZM481 277L338 628L193 277H481ZM400 825Q377 825 361 831T330 844T302 858T272 865Q255 865 246 858T231 843T224 827T222 817H180Q180
822 183 837T197 869T225 897T271 910Q292 910 307 904T337 889T365 875T399 868Q418 868 429 875T447 891T454 907T456 917H498Q498 912 494 897T480 866T450 838T400 825Z" />
<glyph unicode="&#xc4;" glyph-name="Adieresis" horiz-adv-x="676" d="M309 710H368L663 0H589L497 222H178L87 0H12L309 710ZM481 277L338 628L193 277H481ZM235 820V914H293V820H235ZM384 820V914H442V820H384Z" />
<glyph unicode="&#xc5;" glyph-name="Aring" horiz-adv-x="676" d="M309 710H368L663 0H589L497 222H178L87 0H12L309 710ZM481 277L338 628L193 277H481ZM264 852Q264 881 285 899T338 917Q370 917 391 899T412 852Q412 822 391 804T338 786Q306 786 285 804T264
852ZM338 890Q321 890 310 880T298 852Q298 835 309 824T338 813Q354 813 366 824T379 852Q379 869 367 879T338 890Z" />
<glyph unicode="&#xc6;" glyph-name="AE" horiz-adv-x="961" d="M431 710H912V648H518V393H858V331H518V62H921V0H450V222H191L50 0H-26L431 710ZM445 284V626L223 284H445Z" />
<glyph unicode="&#xc7;" glyph-name="Ccedilla" horiz-adv-x="683" d="M294 -126Q308 -133 332 -138T382 -144Q439 -144 439 -109Q439 -89 426 -81T389 -73Q368 -73 345 -77T309 -87L353 -5Q284 -1 226 32T127 116T62 230T39 360Q39 424 61 487T127 601T233 682T376
714Q471 714 538 671T638 559L583 525Q566 560 542 584T489 623T431 644T372 651Q308 651 259 625T177 557T126 463T109 356Q109 297 129 243T185 148T269 82T375 57Q405 57 436 64T497 88T552 129T594 189L652 159Q636 122 608 93T545 43T471 10T392 -5L364 -51Q373
-47 383 -46T402 -45Q437 -45 457 -60T478 -106Q478 -140 452 -158T376 -176Q347 -176 322 -171T277 -157L294 -126Z" />
<glyph unicode="&#xc8;" glyph-name="Egrave" horiz-adv-x="609" d="M566 62V0H89V710H557V648H159V392H506V333H159V62H566ZM244 917H315L375 824L331 807L244 917Z" />
<glyph unicode="&#xc9;" glyph-name="Eacute" horiz-adv-x="609" d="M343 807L298 824L357 917H429L343 807ZM566 62V0H89V710H557V648H159V392H506V333H159V62H566Z" />
<glyph unicode="&#xca;" glyph-name="Ecircumflex" horiz-adv-x="609" d="M214 832L312 917H362L461 832L422 811L337 874L252 811L214 832ZM566 62V0H89V710H557V648H159V392H506V333H159V62H566Z" />
<glyph unicode="&#xcb;" glyph-name="Edieresis" horiz-adv-x="609" d="M233 820V914H291V820H233ZM382 820V914H440V820H382ZM566 62V0H89V710H557V648H159V392H506V333H159V62H566Z" />
<glyph unicode="&#xcc;" glyph-name="Igrave" horiz-adv-x="248" d="M89 0V710H159V0H89ZM31 917H102L162 824L118 807L31 917Z" />
<glyph unicode="&#xcd;" glyph-name="Iacute" horiz-adv-x="248" d="M89 0V710H159V0H89ZM130 807L85 824L144 917H216L130 807Z" />
<glyph unicode="&#xce;" glyph-name="Icircumflex" horiz-adv-x="248" d="M89 0V710H159V0H89ZM1 832L99 917H149L248 832L209 811L124 874L39 811L1 832Z" />
<glyph unicode="&#xcf;" glyph-name="Idieresis" horiz-adv-x="248" d="M89 0V710H159V0H89ZM20 820V914H78V820H20ZM169 820V914H227V820H169Z" />
<glyph unicode="&#xd0;" glyph-name="Eth" horiz-adv-x="721" d="M95 0V330H34V384H95V710H336Q421 710 484 682T590 606T654 494T676 356Q676 275 652 210T584 98T477 26T336 0H95ZM606 356Q606 420 588 473T536 566T451 626T336 648H165V384H335V330H165V62H336Q402
62 452 84T537 146T588 239T606 356Z" />
<glyph unicode="&#xd1;" glyph-name="Ntilde" horiz-adv-x="772" d="M159 580V0H89V710H143L613 119V709H683V0H622L159 580ZM451 825Q428 825 412 831T381 844T353 858T323 865Q306 865 297 858T282 843T275 827T273 817H231Q231 822 234 837T248 869T276 897T322
910Q343 910 358 904T388 889T416 875T450 868Q469 868 480 875T498 891T505 907T507 917H549Q549 912 545 897T531 866T501 838T451 825Z" />
<glyph unicode="&#xd2;" glyph-name="Ograve" horiz-adv-x="751" d="M375 -5Q301 -5 240 25T134 106T66 222T42 355Q42 426 67 491T138 606T244 685T376 715Q450 715 511 684T616 601T684 486T708 354Q708 283 683 218T613 104T507 25T375 -5ZM112 355Q112 297
131 244T185 149T268 83T375 58Q435 58 484 84T567 152T619 247T638 355Q638 413 619 466T564 561T481 626T375 651Q315 651 266 626T183 558T131 463T112 355ZM283 917H354L414 824L370 807L283 917Z" />
<glyph unicode="&#xd3;" glyph-name="Oacute" horiz-adv-x="751" d="M382 807L337 824L396 917H468L382 807ZM375 -5Q301 -5 240 25T134 106T66 222T42 355Q42 426 67 491T138 606T244 685T376 715Q450 715 511 684T616 601T684 486T708 354Q708 283 683 218T613
104T507 25T375 -5ZM112 355Q112 297 131 244T185 149T268 83T375 58Q435 58 484 84T567 152T619 247T638 355Q638 413 619 466T564 561T481 626T375 651Q315 651 266 626T183 558T131 463T112 355Z" />
<glyph unicode="&#xd4;" glyph-name="Ocircumflex" horiz-adv-x="751" d="M253 832L351 917H401L500 832L461 811L376 874L291 811L253 832ZM375 -5Q301 -5 240 25T134 106T66 222T42 355Q42 426 67 491T138 606T244 685T376 715Q450 715 511 684T616 601T684
486T708 354Q708 283 683 218T613 104T507 25T375 -5ZM112 355Q112 297 131 244T185 149T268 83T375 58Q435 58 484 84T567 152T619 247T638 355Q638 413 619 466T564 561T481 626T375 651Q315 651 266 626T183 558T131 463T112 355Z" />
<glyph unicode="&#xd5;" glyph-name="Otilde" horiz-adv-x="751" d="M375 -5Q301 -5 240 25T134 106T66 222T42 355Q42 426 67 491T138 606T244 685T376 715Q450 715 511 684T616 601T684 486T708 354Q708 283 683 218T613 104T507 25T375 -5ZM112 355Q112 297
131 244T185 149T268 83T375 58Q435 58 484 84T567 152T619 247T638 355Q638 413 619 466T564 561T481 626T375 651Q315 651 266 626T183 558T131 463T112 355ZM438 825Q415 825 399 831T368 844T340 858T310 865Q293 865 284 858T269 843T262 827T260 817H218Q218
822 221 837T235 869T263 897T309 910Q330 910 345 904T375 889T403 875T437 868Q456 868 467 875T485 891T492 907T494 917H536Q536 912 532 897T518 866T488 838T438 825Z" />
<glyph unicode="&#xd6;" glyph-name="Odieresis" horiz-adv-x="751" d="M273 820V914H331V820H273ZM422 820V914H480V820H422ZM375 -5Q301 -5 240 25T134 106T66 222T42 355Q42 426 67 491T138 606T244 685T376 715Q450 715 511 684T616 601T684 486T708 354Q708
283 683 218T613 104T507 25T375 -5ZM112 355Q112 297 131 244T185 149T268 83T375 58Q435 58 484 84T567 152T619 247T638 355Q638 413 619 466T564 561T481 626T375 651Q315 651 266 626T183 558T131 463T112 355Z" />
<glyph unicode="&#xd7;" glyph-name="multiply" horiz-adv-x="457" d="M394 151L350 108L228 229L107 108L64 152L185 272L65 393L109 436L228 316L349 437L392 393L272 272L394 151Z" />
<glyph unicode="&#xd8;" glyph-name="Oslash" horiz-adv-x="751" d="M650 710L593 625Q647 572 677 501T708 354Q708 283 683 218T613 104T507 25T375 -5Q327 -5 285 8T207 44L178 0H101L156 83Q102 135 72 206T42 355Q42 426 67 491T138 606T244 685T376 715Q424
715 465 702T543 665L573 710H650ZM112 355Q112 293 133 237T193 139L507 611Q478 630 445 640T375 651Q315 651 266 626T183 558T131 463T112 355ZM638 355Q638 416 616 471T556 569L242 97Q301 58 375 58Q435 58 484 84T567 152T619 247T638 355Z" />
<glyph unicode="&#xd9;" glyph-name="Ugrave" horiz-adv-x="755" d="M377 58Q444 58 488 83T559 150T596 245T607 352V710H677V352Q677 280 661 216T610 102T517 24T378 -5Q294 -5 237 25T144 106T94 220T79 352V710H148V352Q148 296 159 243T196 149T267 83T377
58ZM285 917H356L416 824L372 807L285 917Z" />
<glyph unicode="&#xda;" glyph-name="Uacute" horiz-adv-x="755" d="M385 807L340 824L399 917H471L385 807ZM377 58Q444 58 488 83T559 150T596 245T607 352V710H677V352Q677 280 661 216T610 102T517 24T378 -5Q294 -5 237 25T144 106T94 220T79 352V710H148V352Q148
296 159 243T196 149T267 83T377 58Z" />
<glyph unicode="&#xdb;" glyph-name="Ucircumflex" horiz-adv-x="755" d="M255 832L353 917H403L502 832L463 811L378 874L293 811L255 832ZM377 58Q444 58 488 83T559 150T596 245T607 352V710H677V352Q677 280 661 216T610 102T517 24T378 -5Q294 -5 237 25T144
106T94 220T79 352V710H148V352Q148 296 159 243T196 149T267 83T377 58Z" />
<glyph unicode="&#xdc;" glyph-name="Udieresis" horiz-adv-x="755" d="M275 820V914H333V820H275ZM424 820V914H482V820H424ZM377 58Q444 58 488 83T559 150T596 245T607 352V710H677V352Q677 280 661 216T610 102T517 24T378 -5Q294 -5 237 25T144 106T94 220T79
352V710H148V352Q148 296 159 243T196 149T267 83T377 58Z" />
<glyph unicode="&#xdd;" glyph-name="Yacute" horiz-adv-x="651" d="M93 710L325 328L559 710H635L360 264V0H290V266L16 710H93ZM331 807L286 824L345 917H417L331 807Z" />
<glyph unicode="&#xde;" glyph-name="Thorn" horiz-adv-x="603" d="M364 569Q410 569 449 550T516 499T559 427T575 346Q575 302 561 262T519 190T455 140T371 121H159V0H89V710H159V569H364ZM368 184Q400 184 425 197T469 233T496 285T506 346Q506 378 495 407T464
459T418 494T362 507H159V184H368Z" />
<glyph unicode="&#xdf;" glyph-name="germandbls" horiz-adv-x="551" d="M238 57Q331 58 387 96T443 211Q443 246 431 275T397 324T344 356T276 368H257V430H275Q329 430 362 461T396 544Q396 571 386 591T360 626T321 647T273 654Q240 654 215 643T174 611T149
563T140 505V0H75V515Q75 559 90 595T131 658T194 699T275 714Q315 714 349 702T408 669T447 619T461 554Q461 527 453 502T430 457T397 423T356 403Q431 387 472 334T513 207Q513 156 493 118T437 52T351 11T238 -6V57Z" />
<glyph unicode="&#xe0;" glyph-name="agrave" horiz-adv-x="545" d="M206 -10Q169 -10 138 2T83 37T46 88T33 152Q33 186 49 215T94 265T163 297T251 309Q291 309 332 302T405 282V329Q405 398 366 438T258 479Q218 479 176 463T91 417L67 462Q168 530 263 530Q361
530 417 475T473 323V88Q473 60 498 60V0Q481 -3 472 -3Q446 -3 432 10T416 46L414 87Q378 40 324 15T206 -10ZM222 42Q275 42 319 62T387 115Q396 124 400 134T405 154V239Q371 252 335 259T260 266Q188 266 143 236T98 157Q98 133 107 112T133 76T173 51T222
42ZM170 730H241L301 637L257 620L170 730Z" />
<glyph unicode="&#xe1;" glyph-name="aacute" horiz-adv-x="545" d="M206 -10Q169 -10 138 2T83 37T46 88T33 152Q33 186 49 215T94 265T163 297T251 309Q291 309 332 302T405 282V329Q405 398 366 438T258 479Q218 479 176 463T91 417L67 462Q168 530 263 530Q361
530 417 475T473 323V88Q473 60 498 60V0Q481 -3 472 -3Q446 -3 432 10T416 46L414 87Q378 40 324 15T206 -10ZM222 42Q275 42 319 62T387 115Q396 124 400 134T405 154V239Q371 252 335 259T260 266Q188 266 143 236T98 157Q98 133 107 112T133 76T173 51T222
42ZM270 620L225 637L284 730H356L270 620Z" />
<glyph unicode="&#xe2;" glyph-name="acircumflex" horiz-adv-x="545" d="M206 -10Q169 -10 138 2T83 37T46 88T33 152Q33 186 49 215T94 265T163 297T251 309Q291 309 332 302T405 282V329Q405 398 366 438T258 479Q218 479 176 463T91 417L67 462Q168 530 263
530Q361 530 417 475T473 323V88Q473 60 498 60V0Q481 -3 472 -3Q446 -3 432 10T416 46L414 87Q378 40 324 15T206 -10ZM222 42Q275 42 319 62T387 115Q396 124 400 134T405 154V239Q371 252 335 259T260 266Q188 266 143 236T98 157Q98 133 107 112T133 76T173
51T222 42ZM140 645L238 730H288L387 645L348 624L263 687L178 624L140 645Z" />
<glyph unicode="&#xe3;" glyph-name="atilde" horiz-adv-x="545" d="M206 -10Q169 -10 138 2T83 37T46 88T33 152Q33 186 49 215T94 265T163 297T251 309Q291 309 332 302T405 282V329Q405 398 366 438T258 479Q218 479 176 463T91 417L67 462Q168 530 263 530Q361
530 417 475T473 323V88Q473 60 498 60V0Q481 -3 472 -3Q446 -3 432 10T416 46L414 87Q378 40 324 15T206 -10ZM222 42Q275 42 319 62T387 115Q396 124 400 134T405 154V239Q371 252 335 259T260 266Q188 266 143 236T98 157Q98 133 107 112T133 76T173 51T222
42ZM325 638Q302 638 286 644T255 657T227 671T197 678Q180 678 171 671T156 656T149 640T147 630H105Q105 635 108 650T122 682T150 710T196 723Q217 723 232 717T262 702T290 688T324 681Q343 681 354 688T372 704T379 720T381 730H423Q423 725 419 710T405 679T375
651T325 638Z" />
<glyph unicode="&#xe4;" glyph-name="adieresis" horiz-adv-x="545" d="M206 -10Q169 -10 138 2T83 37T46 88T33 152Q33 186 49 215T94 265T163 297T251 309Q291 309 332 302T405 282V329Q405 398 366 438T258 479Q218 479 176 463T91 417L67 462Q168 530 263
530Q361 530 417 475T473 323V88Q473 60 498 60V0Q481 -3 472 -3Q446 -3 432 10T416 46L414 87Q378 40 324 15T206 -10ZM222 42Q275 42 319 62T387 115Q396 124 400 134T405 154V239Q371 252 335 259T260 266Q188 266 143 236T98 157Q98 133 107 112T133 76T173
51T222 42ZM160 633V727H218V633H160ZM309 633V727H367V633H309Z" />
<glyph unicode="&#xe5;" glyph-name="aring" horiz-adv-x="545" d="M206 -10Q169 -10 138 2T83 37T46 88T33 152Q33 186 49 215T94 265T163 297T251 309Q291 309 332 302T405 282V329Q405 398 366 438T258 479Q218 479 176 463T91 417L67 462Q168 530 263 530Q361
530 417 475T473 323V88Q473 60 498 60V0Q481 -3 472 -3Q446 -3 432 10T416 46L414 87Q378 40 324 15T206 -10ZM222 42Q275 42 319 62T387 115Q396 124 400 134T405 154V239Q371 252 335 259T260 266Q188 266 143 236T98 157Q98 133 107 112T133 76T173 51T222
42ZM189 665Q189 694 210 712T263 730Q295 730 316 712T337 665Q337 635 316 617T263 599Q231 599 210 617T189 665ZM263 703Q246 703 235 693T223 665Q223 648 234 637T263 626Q279 626 291 637T304 665Q304 682 292 692T263 703Z" />
<glyph unicode="&#xe6;" glyph-name="ae" horiz-adv-x="932" d="M205 -10Q169 -10 138 2T83 37T46 88T33 152Q33 186 49 215T93 265T162 297T250 309Q285 309 320 304T384 289Q386 308 389 328T401 365Q391 419 354 449T257 479Q218 479 176 463T90 417L66 462Q169
530 263 530Q328 530 374 503T443 426Q475 473 527 501T642 530Q699 530 746 509T828 451T882 365T902 260Q902 256 902 248T901 236H448Q451 194 468 159T512 97T574 57T648 42Q673 42 698 49T744 68T781 97T807 136L867 120Q855 91 833 68T782 27T718 0T645 -10Q576
-10 521 21T430 105Q413 75 388 53T331 17T268 -3T205 -10ZM221 42Q275 42 319 62T387 115Q403 133 405 150Q395 170 390 196T384 246Q324 266 259 266Q187 266 142 236T97 157Q97 133 106 112T133 76T172 51T221 42ZM837 282Q834 325 818 360T775 422T715 462T641
477Q601 477 567 463T507 422T466 360T448 282H837Z" />
<glyph unicode="&#xe7;" glyph-name="ccedilla" horiz-adv-x="549" d="M223 -126Q237 -133 261 -138T311 -144Q368 -144 368 -109Q368 -89 355 -81T318 -73Q297 -73 274 -77T238 -87L280 -9Q227 -5 183 17T107 77T57 161T39 262Q39 317 58 366T111 451T194 509T300
530Q374 530 429 497T512 406L446 385Q424 425 385 447T297 470Q257 470 223 454T163 411T123 345T108 262Q108 218 123 179T164 112T224 67T298 50Q323 50 347 57T393 76T429 105T450 139L517 119Q496 65 442 31T319 -9L293 -51Q302 -47 312 -46T331 -45Q366 -45
386 -60T407 -106Q407 -140 381 -158T305 -176Q276 -176 251 -171T206 -157L223 -126Z" />
<glyph unicode="&#xe8;" glyph-name="egrave" horiz-adv-x="587" d="M300 -10Q243 -10 196 11T113 70T59 157T39 262Q39 317 58 365T112 450T195 508T299 530Q356 530 403 509T485 450T538 365T557 263Q557 255 557 247T556 236H110Q113 194 129 159T172 97T231
57T303 42Q328 42 353 49T399 68T437 97T463 136L522 120Q510 91 488 68T437 27T373 0T300 -10ZM492 288Q489 330 473 364T431 424T372 463T300 477Q262 477 228 463T169 424T128 364T109 288H492ZM204 730H275L335 637L291 620L204 730Z" />
<glyph unicode="&#xe9;" glyph-name="eacute" horiz-adv-x="587" d="M303 620L258 637L317 730H389L303 620ZM300 -10Q243 -10 196 11T113 70T59 157T39 262Q39 317 58 365T112 450T195 508T299 530Q356 530 403 509T485 450T538 365T557 263Q557 255 557 247T556
236H110Q113 194 129 159T172 97T231 57T303 42Q328 42 353 49T399 68T437 97T463 136L522 120Q510 91 488 68T437 27T373 0T300 -10ZM492 288Q489 330 473 364T431 424T372 463T300 477Q262 477 228 463T169 424T128 364T109 288H492Z" />
<glyph unicode="&#xea;" glyph-name="ecircumflex" horiz-adv-x="587" d="M174 645L272 730H322L421 645L382 624L297 687L212 624L174 645ZM300 -10Q243 -10 196 11T113 70T59 157T39 262Q39 317 58 365T112 450T195 508T299 530Q356 530 403 509T485 450T538
365T557 263Q557 255 557 247T556 236H110Q113 194 129 159T172 97T231 57T303 42Q328 42 353 49T399 68T437 97T463 136L522 120Q510 91 488 68T437 27T373 0T300 -10ZM492 288Q489 330 473 364T431 424T372 463T300 477Q262 477 228 463T169 424T128 364T109
288H492Z" />
<glyph unicode="&#xeb;" glyph-name="edieresis" horiz-adv-x="587" d="M193 633V727H251V633H193ZM342 633V727H400V633H342ZM300 -10Q243 -10 196 11T113 70T59 157T39 262Q39 317 58 365T112 450T195 508T299 530Q356 530 403 509T485 450T538 365T557 263Q557
255 557 247T556 236H110Q113 194 129 159T172 97T231 57T303 42Q328 42 353 49T399 68T437 97T463 136L522 120Q510 91 488 68T437 27T373 0T300 -10ZM492 288Q489 330 473 364T431 424T372 463T300 477Q262 477 228 463T169 424T128 364T109 288H492Z" />
<glyph unicode="&#xec;" glyph-name="igrave" horiz-adv-x="218" d="M75 0V521H143V0H75ZM16 730H87L147 637L103 620L16 730Z" />
<glyph unicode="&#xed;" glyph-name="iacute" horiz-adv-x="218" d="M115 620L70 637L129 730H201L115 620ZM75 0V521H143V0H75Z" />
<glyph unicode="&#xee;" glyph-name="icircumflex" horiz-adv-x="218" d="M-14 645L84 730H134L233 645L194 624L109 687L24 624L-14 645ZM75 0V521H143V0H75Z" />
<glyph unicode="&#xef;" glyph-name="idieresis" horiz-adv-x="218" d="M5 633V727H63V633H5ZM154 633V727H212V633H154ZM75 0V521H143V0H75Z" />
<glyph unicode="&#xf0;" glyph-name="eth" horiz-adv-x="602" d="M495 683L413 632Q456 590 484 545T528 454T552 364T559 277Q559 212 538 160T481 69T398 11T296 -10Q244 -10 198 9T117 61T62 138T42 233Q42 282 61 326T114 403T191 455T287 474Q354 474 408
442T490 357Q480 420 452 482T361 606L249 536L227 567L333 632Q277 680 190 730H286Q341 697 386 658L473 713L495 683ZM111 232Q111 194 125 161T165 103T225 64T298 50Q338 50 373 65T434 107T475 167T490 241Q490 278 475 310T435 366T375 403T301 417Q262
417 227 403T167 363T126 304T111 232Z" />
<glyph unicode="&#xf1;" glyph-name="ntilde" horiz-adv-x="583" d="M513 0H445V291Q445 384 418 426T333 468Q303 468 273 457T218 426T172 379T143 319V0H75V521H137V403Q169 460 228 495T358 530Q401 530 431 514T479 469T505 398T513 305V0ZM358 638Q335 638
319 644T288 657T260 671T230 678Q213 678 204 671T189 656T182 640T180 630H138Q138 635 141 650T155 682T183 710T229 723Q250 723 265 717T295 702T323 688T357 681Q376 681 387 688T405 704T412 720T414 730H456Q456 725 452 710T438 679T408 651T358 638Z"
/>
<glyph unicode="&#xf2;" glyph-name="ograve" horiz-adv-x="595" d="M297 -10Q240 -10 193 11T112 70T58 156T39 259Q39 314 58 363T112 449T194 508T297 530Q353 530 400 508T482 449T536 363T556 259Q556 205 537 156T484 70T402 12T297 -10ZM108 258Q108 214
123 177T163 111T223 66T297 50Q336 50 370 66T431 111T472 178T487 260Q487 303 472 341T431 408T371 453T297 470Q258 470 224 454T164 408T123 341T108 258ZM205 730H276L336 637L292 620L205 730Z" />
<glyph unicode="&#xf3;" glyph-name="oacute" horiz-adv-x="595" d="M303 620L258 637L317 730H389L303 620ZM297 -10Q240 -10 193 11T112 70T58 156T39 259Q39 314 58 363T112 449T194 508T297 530Q353 530 400 508T482 449T536 363T556 259Q556 205 537 156T484
70T402 12T297 -10ZM108 258Q108 214 123 177T163 111T223 66T297 50Q336 50 370 66T431 111T472 178T487 260Q487 303 472 341T431 408T371 453T297 470Q258 470 224 454T164 408T123 341T108 258Z" />
<glyph unicode="&#xf4;" glyph-name="ocircumflex" horiz-adv-x="595" d="M174 645L272 730H322L421 645L382 624L297 687L212 624L174 645ZM297 -10Q240 -10 193 11T112 70T58 156T39 259Q39 314 58 363T112 449T194 508T297 530Q353 530 400 508T482 449T536
363T556 259Q556 205 537 156T484 70T402 12T297 -10ZM108 258Q108 214 123 177T163 111T223 66T297 50Q336 50 370 66T431 111T472 178T487 260Q487 303 472 341T431 408T371 453T297 470Q258 470 224 454T164 408T123 341T108 258Z" />
<glyph unicode="&#xf5;" glyph-name="otilde" horiz-adv-x="595" d="M297 -10Q240 -10 193 11T112 70T58 156T39 259Q39 314 58 363T112 449T194 508T297 530Q353 530 400 508T482 449T536 363T556 259Q556 205 537 156T484 70T402 12T297 -10ZM108 258Q108 214
123 177T163 111T223 66T297 50Q336 50 370 66T431 111T472 178T487 260Q487 303 472 341T431 408T371 453T297 470Q258 470 224 454T164 408T123 341T108 258ZM360 638Q337 638 321 644T290 657T262 671T232 678Q215 678 206 671T191 656T184 640T182 630H140Q140
635 143 650T157 682T185 710T231 723Q252 723 267 717T297 702T325 688T359 681Q378 681 389 688T407 704T414 720T416 730H458Q458 725 454 710T440 679T410 651T360 638Z" />
<glyph unicode="&#xf6;" glyph-name="odieresis" horiz-adv-x="595" d="M194 633V727H252V633H194ZM343 633V727H401V633H343ZM297 -10Q240 -10 193 11T112 70T58 156T39 259Q39 314 58 363T112 449T194 508T297 530Q353 530 400 508T482 449T536 363T556 259Q556
205 537 156T484 70T402 12T297 -10ZM108 258Q108 214 123 177T163 111T223 66T297 50Q336 50 370 66T431 111T472 178T487 260Q487 303 472 341T431 408T371 453T297 470Q258 470 224 454T164 408T123 341T108 258Z" />
<glyph unicode="&#xf7;" glyph-name="divide" horiz-adv-x="537" d="M239 399V490H298V399H239ZM239 74V164H298V74H239ZM67 254V311H470V254H67Z" />
<glyph unicode="&#xf8;" glyph-name="oslash" horiz-adv-x="595" d="M93 -1L132 50Q88 88 64 142T39 259Q39 314 58 363T112 449T194 508T297 530Q335 530 369 520T432 491L455 523H502L461 469Q506 431 531 377T556 259Q556 205 537 156T484 70T402 12T297 -10Q259
-10 225 0T161 28L139 -1H93ZM297 50Q336 50 370 66T431 111T472 178T487 260Q487 307 470 347T423 416L199 80Q243 50 297 50ZM108 258Q108 210 125 171T171 102L395 439Q350 470 297 470Q258 470 224 454T164 408T123 341T108 258Z" />
<glyph unicode="&#xf9;" glyph-name="ugrave" horiz-adv-x="594" d="M238 -10Q153 -10 112 46T70 215V521H138V227Q138 50 259 50Q289 50 318 60T371 89T415 134T447 193V521H515V88Q515 60 539 60V0Q527 -2 520 -2T509 -2Q485 -1 470 15T455 58V118Q421 57 363
24T238 -10ZM198 730H269L329 637L285 620L198 730Z" />
<glyph unicode="&#xfa;" glyph-name="uacute" horiz-adv-x="594" d="M297 620L252 637L311 730H383L297 620ZM238 -10Q153 -10 112 46T70 215V521H138V227Q138 50 259 50Q289 50 318 60T371 89T415 134T447 193V521H515V88Q515 60 539 60V0Q527 -2 520 -2T509
-2Q485 -1 470 15T455 58V118Q421 57 363 24T238 -10Z" />
<glyph unicode="&#xfb;" glyph-name="ucircumflex" horiz-adv-x="594" d="M167 645L265 730H315L414 645L375 624L290 687L205 624L167 645ZM238 -10Q153 -10 112 46T70 215V521H138V227Q138 50 259 50Q289 50 318 60T371 89T415 134T447 193V521H515V88Q515 60
539 60V0Q527 -2 520 -2T509 -2Q485 -1 470 15T455 58V118Q421 57 363 24T238 -10Z" />
<glyph unicode="&#xfc;" glyph-name="udieresis" horiz-adv-x="594" d="M187 633V727H245V633H187ZM336 633V727H394V633H336ZM238 -10Q153 -10 112 46T70 215V521H138V227Q138 50 259 50Q289 50 318 60T371 89T415 134T447 193V521H515V88Q515 60 539 60V0Q527
-2 520 -2T509 -2Q485 -1 470 15T455 58V118Q421 57 363 24T238 -10Z" />
<glyph unicode="&#xfd;" glyph-name="yacute" horiz-adv-x="542" d="M105 -160Q113 -161 120 -161T135 -162Q153 -162 163 -157T184 -135T206 -86T242 0L15 521H85L278 63L457 521H522L252 -151Q241 -180 216 -201T146 -223Q136 -223 127 -223T105 -220V-160ZM285
620L240 637L299 730H371L285 620Z" />
<glyph unicode="&#xfe;" glyph-name="thorn" horiz-adv-x="603" d="M565 257Q564 203 544 154T490 67T409 7T309 -16Q254 -16 211 11T144 74V-213H75V710H144V434Q173 475 214 503T318 532Q376 532 421 508T499 444T548 355T565 257ZM495 258Q495 299 482 337T446
405T389 452T315 470Q285 470 259 460T212 433T173 394T144 348V172Q144 148 160 125T200 85T253 58T308 47Q349 47 383 65T442 112T481 179T495 258Z" />
<glyph unicode="&#xff;" glyph-name="ydieresis" horiz-adv-x="542" d="M105 -160Q113 -161 120 -161T135 -162Q153 -162 163 -157T184 -135T206 -86T242 0L15 521H85L278 63L457 521H522L252 -151Q241 -180 216 -201T146 -223Q136 -223 127 -223T105 -220V-160ZM175
633V727H233V633H175ZM324 633V727H382V633H324Z" />
<glyph unicode="&#x2013;" glyph-name="endash" horiz-adv-x="570" d="M65 241V304H504V241H65Z" />
<glyph unicode="&#x2014;" glyph-name="emdash" horiz-adv-x="901" d="M65 241V304H836V241H65Z" />
<glyph unicode="&#x2018;" glyph-name="quoteleft" horiz-adv-x="196" d="M124 730L107 624H131V521H64V624L89 730H124Z" />
<glyph unicode="&#x2019;" glyph-name="quoteright" horiz-adv-x="190" d="M71 521L88 627H64V730H131V627L106 521H71Z" />
<glyph unicode="&#x201a;" glyph-name="quotesinglbase" horiz-adv-x="225" d="M86 -104L103 0H80V102H146V0L121 -104H86Z" />
<glyph unicode="&#x201c;" glyph-name="quotedblleft" horiz-adv-x="316" d="M124 730L107 624H131V521H64V624L89 730H124ZM245 730L228 624H252V521H185V624L210 730H245Z" />
<glyph unicode="&#x201d;" glyph-name="quotedblright" horiz-adv-x="311" d="M71 521L88 627H64V730H131V627L106 521H71ZM192 521L209 627H185V730H252V627L227 521H192Z" />
<glyph unicode="&#x201e;" glyph-name="quotedblbase" horiz-adv-x="343" d="M86 -104L103 0H80V102H146V0L121 -104H86ZM204 -104L221 0H198V102H264V0L239 -104H204Z" />
<glyph unicode="&#x2022;" glyph-name="bullet" horiz-adv-x="351" d="M265 346Q265 308 239 282T176 256Q139 256 113 282T86 346Q86 364 93 380T112 408T141 428T176 435Q194 435 210 428T239 409T258 380T265 346Z" />
<glyph unicode="&#x2039;" glyph-name="guilsinglleft" horiz-adv-x="352" d="M41 276L289 454V395L96 259L289 125V66L41 239V276Z" />
<glyph unicode="&#x203a;" glyph-name="guilsinglright" horiz-adv-x="352" d="M312 239L63 66V125L256 259L63 395V454L312 276V239Z" />
</font>
</defs>
</svg>
